A Perfect Getaway 2009 720p Esub BDRIP Dual Audio English Hindi GOPISAHI

Video
ID                             : 1
Format                         : AVC
Codec ID                       : V_MPEG4/ISO/AVC
Duration                       : 1 h 37 min
Bit rate                       : 1 270 kb/s
Width                          : 1 280 pixels
Height                         : 544 pixels
Display aspect ratio           : 2.35:1
Frame rate mode                : Constant
Frame rate                     : 23.976 (24000/1001) FPS
Stream size                    : 882 MiB (88%)
Title                          : GOPISAHI
Writing library                : x264 core
Language                       : English                
Audio #1
Format                         : AAC
Duration                       : 1 h 37 min
Bit rate                       : 90.1 kb/s
Channel(s)                     : 6 channels
Channel positions              : Front: L C R, Side: L R, LFE
Sampling rate                  : 44.1 kHz
Frame rate                     : 43.066 FPS (1024 SPF)
Stream size                    : 62.6 MiB (6%)
Title                          : GOPISAHI
Language                       : English
Audio #2
Format                         : AAC
Duration                       : 1 h 37 min
Bit rate                       : 76.9 kb/s
Channel(s)                     : 6 channels
Channel positions              : Front: L C R, Side: L R, LFE
Sampling rate                  : 44.1 kHz
Frame rate                     : 43.066 FPS (1024 SPF)
Stream size                    : 53.4 MiB (5%)
Title                          : GOPISAHI
Language                       : Hindi
Text
Duration                       : 1 h 32 min
Stream size                    : 42.2 KiB (0%)
Language                       : English
 
 

Post a Comment

0 Comments