Baadshaho 2017 720p Esub HD Hindi GD @ GOPISAHI


Format                         : Matroska
Format version                 : Version 4 / Version 2
File size                      : 759 MiB
Duration                       : 2 h 14 min
Overall bit rate               : 787 kb/s
Movie name                     : Baadshaho 2017

Video
Format                         : AVC
Codec ID                       : V_MPEG4/ISO/AVC
Duration                       : 2 h 14 min
Bit rate                       : 700 kb/s
Width                          : 1 280 pixels
Height                         : 536 pixels
Display aspect ratio           : 2.40:1
Frame rate mode                : Constant
Frame rate                     : 24.000 FPS
Stream size                    : 674 MiB (89%)
Writing library                : x264

Audio
Format                         : AAC
Duration                       : 2 h 14 min
Bit rate                       : 85.3 kb/s
Channel(s)                     : 6 channels
Channel positions              : Front: L C R, Side: L R, LFE
Sampling rate                  : 44.1 kHz
Frame rate                     : 43.066 FPS (1024 SPF)
Stream size                    : 82.2 MiB (11%)
Language                       : Hindi

Text
Language                       : English
 
 

Post a Comment

0 Comments