Bhagat singh di udeek 2018 720p HD Punjabi GOPISAHI


Format                         : Matroska
Format version                 : Version 4 / Version 2
File size                      : 324 MiB
Duration                       : 1 h 36 min
Overall bit rate               : 469 kb/s
Movie name                     : Bhagat singh di udeek 2018 GOPISAHI

Video
Format                         : AVC
Codec ID                       : V_MPEG4/ISO/AVC
Duration                       : 1 h 36 min
Bit rate                       : 400 kb/s
Width                          : 1 280 pixels
Height                         : 544 pixels
Display aspect ratio           : 2.35:1
Frame rate mode                : Constant
Frame rate                     : 25.000 FPS
Stream size                    : 276 MiB (85%)
Title                          : GOPISAHI
Writing library                : x264
Language                       : Panjabi

Audio
Format                         : AAC
Duration                       : 1 h 36 min
Bit rate                       : 66.2 kb/s
Channel(s)                     : 6 channels
Channel positions              : Front: L C R, Side: L R, LFE
Sampling rate                  : 44.1 kHz
Frame rate                     : 43.066 FPS (1024 SPF)
Compression mode               : Lossy
Stream size                    : 46.3 MiB (14%)
Title                          : GOPISAHI
Language                       : Panjabi
 
 

Post a Comment

0 Comments