Black Panther 2018 720p Esub BluRay Dual Audio English Hindi

cam audio


Format : Matroska 
Format version : Version 4 / Version 2 
File size : 748 MiB 
Duration : 2 h 14 min 
Overall bit rate : 776 kb/s 
Movie name : Black Panther 2018 GOPISAHI.BID 

Video 
Format : AVC 
Codec ID : V_MPEG4/ISO/AVC 
Duration : 2 h 14 min 
Bit rate : 600 kb/s 
Width : 1 280 pixels 
Height : 536 pixels 
Display aspect ratio : 2.40:1 
Frame rate mode : Constant 
Frame rate : 23.976 (24000/1001) FPS 
Stream size : 577 MiB (77%) 
Title : GOPISAHI.BID 
Writing library : x264 core 148 r2708 86b7198 

Audio #1 
Format : AAC 
Duration : 2 h 14 min 
Bit rate : 85.3 kb/s 
Channel(s) : 6 channels 
Channel positions : Front: L C R, Side: L R, LFE 
Sampling rate : 44.1 kHz 
Frame rate : 43.066 FPS (1024 SPF) 
Compression mode : Lossy 
Stream size : 82.1 MiB (11%) 
Title : GOPISAHI.BID 
Language : English 

Audio #2 
Format : AAC 
Duration : 2 h 14 min 
Bit rate : 89.5 kb/s 
Channel(s) : 6 channels 
Channel positions : Front: L C R, Side: L R, LFE 
Sampling rate : 44.1 kHz 
Frame rate : 43.066 FPS (1024 SPF) 
Compression mode : Lossy 
Stream size : 86.4 MiB (12%) 
Title : GOPISAHI.BID 
Language : Hindi 

Text 
Language : English 



Post a Comment

0 Comments