Broken City 2013 720p Esub BluRay Dual Audio English Hindi GOPISAHI

Title: Broken City
Year: 2013
Runtime: 109 minutes
Votes: 69087
Rating: 6.2/10
Language: English, Spanish
Country: USA
All Genres: Action, Crime, Drama, Mystery, Thriller
Plot Outline: In a city rife with injustice, ex-cop Billy Taggart seeks redemption and revenge after being double-crossed and then framed by its most powerful figure: Mayor Nicholas Hostetler.
Tagline: Proof Can Be a Powerful Weapon.
Director: Allen Hughes
Writing By: Brian Tucker
Produced By: Brandt Andersen,William S. Beasley,Rodin Alper Bingol,Remington Chase,Randall Emmett,George Furla,Jason Gandhi,Brandon Grimes,Allen Hughes,Scott Lambert,Stephen Levinson,Fredrik Malmberg,Stepan Martirosyan,Arnon Milchan,Jeff Rice,Scott Robinson,Teddy Schwarzman,Adi Shankar,Spencer Silna,Ben Stillman,Brian Tucker,Daniel Wagner,Mark Wahlberg
Music: Atticus Ross Leopold Ross Claudia Sarne 
Cast:
Mark Wahlberg as Billy Taggart 
Russell Crowe as Mayor Hostetler 
Catherine Zeta-Jones as Cathleen Hostetler 
Jeffrey Wright as Carl Fairbanks 
Barry Pepper as Jack Valliant 
Alona Tal as Katy Bradshaw 
Natalie Martinez as Natalie Barrow 
Michael Beach as Tony Jansen 
Kyle Chandler as Paul Andrews 
James Ransone as Todd Lancaster 
Trailers:
UK Trailer
Broken City
Trailer #1

Format                         : Matroska
Format version                 : Version 4 / Version 2
File size                      : 444 MiB
Duration                       : 1 h 48 min
Overall bit rate               : 571 kb/s
Movie name                     : Broken City 2013 GOPISAHI

Video
Format                         : AVC
Codec ID                       : V_MPEG4/ISO/AVC
Duration                       : 1 h 48 min
Bit rate                       : 400 kb/s
Width                          : 1 280 pixels
Height                         : 528 pixels
Display aspect ratio           : 2.40:1
Frame rate mode                : Constant
Frame rate                     : 23.976 (24000/1001) FPS
Stream size                    : 311 MiB (70%)
Title                          : GOPISAHI
Writing library                : x264 core 155 r2893 b00bcaf

Audio #1
Format                         : AAC
Duration                       : 1 h 48 min
Bit rate                       : 82.2 kb/s
Channel(s)                     : 6 channels
Channel positions              : Front: L C R, Side: L R, LFE
Sampling rate                  : 44.1 kHz
Frame rate                     : 43.066 FPS (1024 SPF)
Compression mode               : Lossy
Stream size                    : 63.9 MiB (14%)
Title                          : GOPISAHI
Language                       : English

Audio #2
Format                         : AAC
Duration                       : 1 h 48 min
Bit rate                       : 85.9 kb/s
Channel(s)                     : 6 channels
Channel positions              : Front: L C R, Side: L R, LFE
Sampling rate                  : 44.1 kHz
Frame rate                     : 43.066 FPS (1024 SPF)
Compression mode               : Lossy
Stream size                    : 66.8 MiB (15%)
Title                          : GOPISAHI
Language                       : Hindi

Text
Language                       : English
 
 

Post a Comment

0 Comments