Funny People 2009 720p Esub BlyRay Dual Audio English Hindi GOPISAHI


Format                         : Matroska
Format version                 : Version 4 / Version 2
File size                      : 838 MiB
Duration                       : 2 h 32 min
Overall bit rate               : 768 kb/s
Movie name                     : Funny People 2009 GOPISAHI

Video
Format                         : AVC
Codec ID                       : V_MPEG4/ISO/AVC
Duration                       : 2 h 32 min
Bit rate                       : 600 kb/s
Width                          : 1 088 pixels
Height                         : 592 pixels
Display aspect ratio           : 1.85:1
Frame rate mode                : Constant
Frame rate                     : 23.976 (24000/1001) FPS
Stream size                    : 655 MiB (78%)
Writing library                : x264 core 155 r2893 b00bcaf

Audio #1
Format                         : AAC
Duration                       : 2 h 32 min
Bit rate                       : 86.0 kb/s
Channel(s)                     : 6 channels
Channel positions              : Front: L C R, Side: L R, LFE
Sampling rate                  : 44.1 kHz
Frame rate                     : 43.066 FPS (1024 SPF)
Compression mode               : Lossy
Stream size                    : 93.8 MiB (11%)
Language                       : English

Audio #2
Format                         : AAC
Duration                       : 2 h 32 min
Bit rate                       : 79.3 kb/s
Channel(s)                     : 6 channels
Channel positions              : Front: L C R, Side: L R, LFE
Sampling rate                  : 44.1 kHz
Frame rate                     : 43.066 FPS (1024 SPF)
Compression mode               : Lossy
Stream size                    : 86.6 MiB (10%)
Language                       : Hindi

Text
Language                       : English
 
 

Post a Comment

0 Comments