Guardians Of The Galaxy Vol 2 2017 720p Esub BluRay Dual Audio English Hindi GOPISAHI


Video
Format                         : AVC
Codec ID                       : V_MPEG4/ISO/AVC
Duration                       : 2 h 15 min
Bit rate                       : 799 kb/s
Width                          : 1 280 pixels
Height                         : 534 pixels
Display aspect ratio           : 2.40:1
Frame rate mode                : ConstantFrame rate                     : 23.976 (24000/1001) FPS
Stream size                    : 776 MiB (85%)
Writing library                : x264 core 148 r2708 86b7198

Audio #1
Duration                       : 2 h 15 min
Bit rate                       : 85.3 kb/s
Channel(s)                     : 6 channels
Channel positions              : Front: L C R, Side: L R, LFE
Sampling rate                  : 44.1 kHz
Frame rate                     : 43.066 FPS (1024 SPF)
Stream size                    : 82.8 MiB (9%)
Language                       : English

Audio #2
Duration                       : 2 h 15 min
Bit rate                       : 48.0 kb/s ((NOT WATCH THIS CHEK THE AUDIO QULITY ))))
Channel(s)                     : 6 channels
Channel positions              : Front: L C R, Side: L R, LFE
Sampling rate                  : 44.1 kHz
Frame rate                     : 43.066 FPS (1024 SPF)
Stream size                    : 47.8 MiB (5%)
Language                       : Hindi

Text
Language                       : English


Post a Comment

0 Comments