Kirdar e sardar 2017 HD 720p Punjabi GOPISAHI

Format                         : Matroska
Format version                 : Version 4 / Version 2
File size                      : 608 MiB
Duration                       : 2 h 16 min
Overall bit rate               : 624 kb/s
Movie name                     : Kirdar e sardar 2017 GOPISAHI
Video
Format                         : AVC
Codec ID                       : V_MPEG4/ISO/AVC
Duration                       : 2 h 16 min
Bit rate                       : 500 kb/s
Width                          : 1 280 pixels
Height                         : 536 pixels
Display aspect ratio           : 2.40:1
Frame rate mode                : Constant
Frame rate                     : 25.000 FPS
Stream size                    : 487 MiB (80%)
Title                          : GOPISAHI
Writing library                : x264 core 155 r2893 b00bcaf
Audio
Format                         : AAC
Duration                       : 2 h 16 min
Bit rate                       : 122 kb/s
Channel(s)                     : 2 channels
Channel positions              : Front: L R
Sampling rate                  : 44.1 kHz
Frame rate                     : 43.066 FPS (1024 SPF)
Compression mode               : Lossy
Stream size                    : 119 MiB (20%)
Language                       : Panjabi
 

Post a Comment

0 Comments