Knowing 2009 720p Esub BluRay Dual Audio English Hindi GOPISAHI


Format                         : Matroska
Format version                 : Version 4 / Version 2
File size                      : 757 MiB
Duration                       : 2 h 1 min
Overall bit rate               : 871 kb/s
Movie name                     : Knowing 2009

Video
Format                         : AVC
Codec ID                       : V_MPEG4/ISO/AVC
Duration                       : 2 h 1 min
Bit rate                       : 699 kb/s
Width                          : 1 280 pixels
Height                         : 544 pixels
Display aspect ratio           : 2.35:1
Frame rate mode                : Constant
Frame rate                     : 23.976 (24000/1001) FPS
Stream size                    : 608 MiB (80%)
Writing library                : x264 core 120 r2164 da19765

Audio #1
Format                         : AAC
Duration                       : 2 h 1 min
Bit rate                       : 87.1 kb/s
Channel(s)                     : 6 channels
Channel positions              : Front: L C R, Side: L R, LFE
Sampling rate                  : 44.1 kHz
Frame rate                     : 43.066 FPS (1024 SPF)
Stream size                    : 75.7 MiB (10%)
Language                       : English

Audio #2
Format                         : AAC
Duration                       : 2 h 1 min
Bit rate                       : 81.9 kb/s
Channel(s)                     : 6 channels
Channel positions              : Front: L C R, Side: L R, LFE
Sampling rate                  : 44.1 kHz
Frame rate                     : 43.066 FPS (1024 SPF)
Stream size                    : 71.0 MiB (9%)
Language                       : Hindi

Text
Language                       : English
 
 
 

Post a Comment

0 Comments