Land of the Lost 2009 720p Esub BluRay Dual Audio English Hindi GOPISAHI


Format                         : Matroska
Format version                 : Version 4 / Version 2
File size                      : 883 MiB
Duration                       : 1 h 41 min
Overall bit rate               : 1 215 kb/s
Movie name                     : Land of the Lost 2009 GOPISAHI

Video
Format                         : AVC
Codec ID                       : V_MPEG4/ISO/AVC
Duration                       : 1 h 41 min
Bit rate                       : 1 037 kb/s
Width                          : 1 280 pixels
Height                         : 690 pixels
Display aspect ratio           : 1.85:1
Frame rate mode                : Constant
Frame rate                     : 23.976 FPS
Stream size                    : 752 MiB (85%)
Writing library                : x264 core 112

Audio #1
Format                         : AAC
Duration                       : 1 h 41 min
Bit rate                       : 90.6 kb/s
Channel(s)                     : 6 channels
Channel positions              : Front: L C R, Side: L R, LFE
Sampling rate                  : 44.1 kHz
Frame rate                     : 43.066 FPS (1024 SPF)
Stream size                    : 65.9 MiB (7%)
Language                       : English

Audio #2
Format                         : AAC
Duration                       : 1 h 41 min
Bit rate                       : 87.1 kb/s
Channel(s)                     : 6 channels
Channel positions              : Front: L C R, Side: L R, LFE
Sampling rate                  : 44.1 kHz
Frame rate                     : 43.066 FPS (1024 SPF)
Stream size                    : 63.2 MiB (7%)
Title                          : GOPISAHI
Language                       : Hindi


Text
Language                       : English
 
 

Post a Comment

0 Comments