Max Steel 2016 720p Esub BluRay 5.1 Dual Audio English Hindi GOPISAHI @ links update - GOPISAHI

Wednesday, 8 August 2018

Max Steel 2016 720p Esub BluRay 5.1 Dual Audio English Hindi GOPISAHI @ links update

 Format                         : Matroska
Format version                 : Version 4 / Version 2
File size                      : 574 MiB
Duration                       : 1 h 32 min
Overall bit rate               : 867 kb/s
Movie name                     : Max Steel 2016

Video
Format                         : AVC
Codec ID                       : V_MPEG4/ISO/AVC
Duration                       : 1 h 32 min
Bit rate                       : 700 kb/s
Width                          : 1 272 pixels
Height                         : 528 pixels
Display aspect ratio           : 2.40:1
Frame rate mode                : Constant
Frame rate                     : 23.976 (24000/1001) FPS
Stream size                    : 463 MiB (81%)
Writing library                : x264

Audio #1
Format                         : AAC
Duration                       : 1 h 32 min
Bit rate                       : 86.2 kb/s
Channel(s)                     : 6 channels
Channel positions              : Front: L C R, Side: L R, LFE
Sampling rate                  : 44.1 kHz
Frame rate                     : 43.066 FPS (1024 SPF)
Stream size                    : 57.0 MiB (10%)
Language                       : Hindi

Audio #2
Format                         : AAC
Duration                       : 1 h 32 min
Bit rate                       : 78.5 kb/s
Channel(s)                     : 6 channels
Channel positions              : Front: L C R, Side: L R, LFE
Sampling rate                  : 44.1 kHz
Frame rate                     : 43.066 FPS (1024 SPF)
Compression mode               : Lossy
Stream size                    : 51.9 MiB (9%)
Language                       : English

Text
Language                       : English



2
3

No comments:

Post a Comment