Nine 2009 720p Esub BluRay Dual Audio English Hindi GOPISAHI


Format                         : Matroska
Format version                 : Version 4 / Version 2
File size                      : 790 MiB
Duration                       : 1 h 58 min
Overall bit rate               : 932 kb/s
Movie name                     : Nine 2009

Video
Format                         : AVC
Codec ID                       : V_MPEG4/ISO/AVC
Duration                       : 1 h 58 min
Bit rate                       : 753 kb/s
Width                          : 1 280 pixels
Height                         : 528 pixels
Display aspect ratio           : 2.40:1
Frame rate mode                : Constant
Frame rate                     : 23.976 (24000/1001) FPS
Stream size                    : 638 MiB (81%)
Writing library                : x264 core 120 r2164 da19765

Audio #1
Format                         : AAC
Duration                       : 1 h 58 min
Bit rate                       : 90.4 kb/s
Channel(s)                     : 6 channels
Channel positions              : Front: L C R, Side: L R, LFE
Sampling rate                  : 44.1 kHz
Frame rate                     : 43.066 FPS (1024 SPF)
Stream size                    : 76.6 MiB (10%)
Language                       : Hindi

Audio #2
Format                         : AAC
Duration                       : 1 h 58 min
Bit rate                       : 85.9 kb/s
Channel(s)                     : 6 channels
Channel positions              : Front: L C R, Side: L R, LFE
Sampling rate                  : 44.1 kHz
Frame rate                     : 43.066 FPS (1024 SPF)
Stream size                    : 72.9 MiB (9%)
Language                       : English

Text #1
Language                       : English

Text #2
Language                       : Swedish
 
 

Post a Comment

0 Comments