Now You See Me 2013 720p Esub BDrip M Audio English Hindi Italian GOPISAHI

Format                         : Matroska
Format version                 : Version 4 / Version 2
File size                      : 964 MiB
Duration                       : 1 h 55 min
Overall bit rate               : 1 162 kb/s
Movie name                     : Now You See Me 2013 GOPISAHI

Video
Format                         : AVC
Codec ID                       : V_MPEG4/ISO/AVC
Duration                       : 1 h 55 min
Bit rate                       : 899 kb/s
Width                          : 1 280 pixels
Height                         : 532 pixels
Display aspect ratio           : 2.40:1
Frame rate mode                : Constant
Frame rate                     : 23.976 (24000/1001) FPS
Stream size                    : 742 MiB (77%)
Title                          : GOPISAHI
Writing library                : x264 core 155 r2893 b00bcaf

Audio #1
Format                         : AAC
Duration                       : 1 h 55 min
Bit rate                       : 88.7 kb/s
Channel(s)                     : 6 channels
Channel positions              : Front: L C R, Side: L R, LFE
Sampling rate                  : 44.1 kHz
Frame rate                     : 43.066 FPS (1024 SPF)
Stream size                    : 73.2 MiB (8%)
Title                          : GOPISAHI
Language                       : Hindi

Audio #2
Format                         : AAC
Duration                       : 1 h 55 min
Bit rate                       : 87.6 kb/s
Channel(s)                     : 6 channels
Channel positions              : Front: L C R, Side: L R, LFE
Sampling rate                  : 44.1 kHz
Frame rate                     : 43.066 FPS (1024 SPF)
Compression mode               : Lossy
Stream size                    : 72.6 MiB (8%)
Language                       : English

Audio #3
Format                         : AAC
Duration                       : 1 h 55 min
Bit rate                       : 88.7 kb/s
Channel(s)                     : 6 channels
Channel positions              : Front: L C R, Side: L R, LFE
Sampling rate                  : 44.1 kHz
Frame rate                     : 43.066 FPS (1024 SPF)
Compression mode               : Lossy
Stream size                    : 73.2 MiB (8%)
Language                       : Italian

Text #1
Language                       : English

Text #2
Language                       : Italian
 
 

Post a Comment

0 Comments