Omerta 2018 Hindi Pdvd GOPISAHI




Format                         : Matroska
Format version                 : Version 4 / Version 2
File size                      : 172 MiB
Duration                       : 1 h 32 min
Overall bit rate               : 259 kb/s
Movie name                     : Omerta 2018 GOPISAHI


Video
Format                         : AVC
Codec ID                       : V_MPEG4/ISO/AVC
Duration                       : 1 h 32 min
Bit rate                       : 200 kb/s
Width                          : 500 pixels
Height                         : 222 pixels
Display aspect ratio           : 2.25:1
Original display aspect ratio  : 2.25:1
Frame rate mode                : Constant
Frame rate                     : 25.000 FPS
Color space                    : YUV
Chroma subsampling             : 4:2:0
Bit depth                      : 8 bits
Scan type                      : Progressive
Bits/(Pixel*Frame)             : 0.072
Stream size                    : 133 MiB (77%)
Title                          : GOPISAHI
Writing library                : x264 core 155 r2893 b00bcaf
Encoding settings              : cabac=1 / ref=16 / deblock=1:0:0 / analyse=0x1:0x131 / me=umh /
Audio
Format                         : AAC
Duration                       : 1 h 32 min
Bit rate                       : 56.5 kb/s
Channel(s)                     : 2 channels
Channel positions              : Front: L R
Sampling rate                  : 44.1 kHz
Frame rate                     : 43.066 FPS (1024 SPF)
Compression mode               : Lossy
Stream size                    : 37.5 MiB (22%)
Title                          : GOPISAHI





Post a Comment

0 Comments