Phillauri 2017 720p Esub BluRay Dual Audio Hindi Punjabi GOPISAHI

Format                         : Matroska
Format version                 : Version 4 / Version 2
File size                      : 753 MiB
Duration                       : 2 h 15 min
Overall bit rate               : 776 kb/s
Movie name                     : Phillauri 2017

Video
Format                         : AVC
Codec ID                       : V_MPEG4/ISO/AVC
Duration                       : 2 h 15 min
Bit rate                       : 600 kb/s
Width                          : 1 280 pixels
Height                         : 544 pixels
Display aspect ratio           : 2.35:1
Frame rate mode                : Constant
Frame rate                     : 24.000 FPS
Stream size                    : 582 MiB (77%)
Writing library                : x264

Audio #1
Format                         : AAC
Duration                       : 2 h 15 min
Bit rate                       : 86.5 kb/s
Channel(s)                     : 6 channels
Channel positions              : Front: L C R, Side: L R, LFE
Sampling rate                  : 44.1 kHz
Frame rate                     : 43.066 FPS (1024 SPF)
Stream size                    : 84.0 MiB (11%)
Language                       : Panjabi

Audio #2
Format                         : AAC
Duration                       : 2 h 15 min
Bit rate                       : 86.7 kb/s
Channel(s)                     : 6 channels
Channel positions              : Front: L C R, Side: L R, LFE
Sampling rate                  : 44.1 kHz
Frame rate                     : 43.066 FPS (1024 SPF)
Stream size                    : 84.1 MiB (11%)
Language                       : Hindi

Text
Stream size                    : 36.5 KiB (0%)
Language                       : English
 
 

Post a Comment

0 Comments