Prisoners 2013 720p x264 Esub BluRay Dual Audio English Hindi GOPISAHI

Format                         : Matroska
Format version                 : Version 4 / Version 2
File size                      : 736 MiB
Duration                       : 2 h 33 min
Overall bit rate               : 672 kb/s
Movie name                     : Prisoners 2013 GOPISAHI

Video
Format                         : AVC
Codec ID                       : V_MPEG4/ISO/AVC
Duration                       : 2 h 33 min
Bit rate                       : 500 kb/s
Width                          : 1 280 pixels
Height                         : 720 pixels
Display aspect ratio           : 16:9
Frame rate mode                : Constant
Frame rate                     : 23.976 (24000/1001) FPS
Stream size                    : 548 MiB (74%)
Title                          : GOPISAHI
Writing library                : x264 core 155 r2893 b00bcaf

Audio #1
Format                         : AAC
Duration                       : 2 h 33 min
Bit rate                       : 83.2 kb/s
Channel(s)                     : 6 channels
Channel positions              : Front: L C R, Side: L R, LFE
Sampling rate                  : 44.1 kHz
Frame rate                     : 43.066 FPS (1024 SPF)
Compression mode               : Lossy
Stream size                    : 91.2 MiB (12%)
Title                          : GOPISAHI
Language                       : English

Audio #2
ID                             : 4
Format                         : AAC
Duration                       : 2 h 33 min
Bit rate                       : 86.3 kb/s
Channel(s)                     : 6 channels
Channel positions              : Front: L C R, Side: L R, LFE
Sampling rate                  : 44.1 kHz
Frame rate                     : 43.066 FPS (1024 SPF)
Compression mode               : Lossy
Stream size                    : 94.5 MiB (13%)
Title                          : GOPISAHI
Language                       : Hindi

Text
Language                       : English
 
 

Post a Comment

0 Comments