Red Cliff 2008 720p x264 Esub BluRay Dual Audio English Hindi GOPISAHI

https://3.bp.blogspot.com/-twU8iDcEXX8/WsGUjU5mr7I/AAAAAAAAVXU/Rl_vSsirzy8n0GsSAuCKV9b58yqFJsPxwCLcBGAs/s1600/MV5BMTcyOTQ3NDA1OV5BMl5BanBnXkFtZTcwMDY3NzM4Mg%2540%2540._V1_SY1000_CR0%252C0%252C674%252C1000_AL_.jpg
Format                         : Matroska
Format version                 : Version 4 / Version 2
File size                      : 780 MiB
Duration                       : 2 h 27 min
Overall bit rate               : 737 kb/s
Movie name                     : Red Cliff 2008 GOPISAHI

Video
Format                         : AVC
Codec ID                       : V_MPEG4/ISO/AVC
Duration                       : 2 h 27 min
Bit rate                       : 600 kb/s
Width                          : 1 280 pixels
Height                         : 544 pixels
Display aspect ratio           : 2.35:1
Frame rate mode                : Constant
Frame rate                     : 23.976 (24000/1001) FPS
Color space                    : YUV
Chroma subsampling             : 4:2:0
Bit depth                      : 8 bits
Scan type                      : Progressive
Bits/(Pixel*Frame)             : 0.036
Stream size                    : 634 MiB (81%)
Title                          : GOPISAHI
Writing library                : x264 core 155 r2893 b00bcaf

Audio #1
Format                         : AAC
Duration                       : 2 h 27 min
Bit rate                       : 66.2 kb/s
Channel(s)                     : 6 channels
Channel positions              : Front: L C R, Side: L R, LFE
Sampling rate                  : 44.1 kHz
Frame rate                     : 43.066 FPS (1024 SPF)
Compression mode               : Lossy
Stream size                    : 70.7 MiB (9%)
Title                          : GOPISAHI
Language                       : English

Audio #2
Format                         : AAC
Duration                       : 2 h 27 min
Bit rate                       : 68.2 kb/s
Channel(s)                     : 6 channels
Channel positions              : Front: L C R, Side: L R, LFE
Sampling rate                  : 44.1 kHz
Frame rate                     : 43.066 FPS (1024 SPF)
Compression mode               : Lossy
Stream size                    : 72.1 MiB (9%)
Title                          : GOPISAHI
Language                       : Hindi
 

Post a Comment

0 Comments