The Bank Job 2008 720p Esub BluRay Dual Audio English Hindi GOPISAHI

General
Format                         : Matrosk
Format version                 : Version 4 / Version 2
File size                      : 760 MiB
Duration                       : 1 h 52 min
Overall bit rate               : 948 kb/s
Movie name                     : The Bank Job 2008

Video
Format                         : AVC
Codec ID                       : V_MPEG4/ISO/AVC
Duration                       : 1 h 52 min
Bit rate                       : 775 kb/s
Width                          : 1 280 pixels
Height                         : 544 pixels
Display aspect ratio           : 2.35:1
Frame rate mode                : Constant
Frame rate                     : 23.976 (24000/1001) FPS
Stream size                    : 621 MiB (82%)
Writing library                : x264 core 125 r2200 999b753

Audio #1
Format                         : AAC
Duration                       : 1 h 52 min
Bit rate                       : 83.8 kb/s
Channel(s)                     : 6 channels
Channel positions              : Front: L C R, Side: L R, LFE
Sampling rate                  : 44.1 kHz
Frame rate                     : 43.066 FPS (1024 SPF)
Stream size                    : 67.2 MiB (9%)
Language                       : English

Audio #2
Format                         : AAC
Duration                       : 1 h 52 min
Bit rate                       : 86.7 kb/s
Channel(s)                     : 6 channels
Channel positions              : Front: L C R, Side: L R, LFE
Sampling rate                  : 44.1 kHz
Frame rate                     : 43.066 FPS (1024 SPF)
Stream size                    : 69.5 MiB (9%)
Language                       : Hindi

Text
Language                       : English
 
 

Post a Comment

0 Comments