The Princess and the Frog 2009 720p x264 Esub BluRay Dual Audio English Hindi GOPISAHI

;
Format                         : Matroska
Format version                 : Version 4 / Version 2
File size                      : 477 MiB
Duration                       : 1 h 38 min
Overall bit rate               : 678 kb/s
Movie name                     : The Princess and the Frog 2009 GOPISAHI

Video
Format                         : AVC
Codec ID                       : V_MPEG4/ISO/AVC
Duration                       : 1 h 37 min
Bit rate                       : 500 kb/s
Width                          : 1 280 pixels
Height                         : 720 pixels
Display aspect ratio           : 16:9
Frame rate mode                : Constant
Frame rate                     : 23.976 (24000/1001) FPS
Stream size                    : 348 MiB (73%)
Title                          : GOPISAHI
Writing library                : x264 core 155 r2893 b00bcaf

Audio #1
Format                         : AAC
Duration                       : 1 h 38 min
Bit rate                       : 90.8 kb/s
Channel(s)                     : 6 channels
Channel positions              : Front: L C R, Side: L R, LFE
Sampling rate                  : 44.1 kHz
Frame rate                     : 43.066 FPS (1024 SPF)
Compression mode               : Lossy
Stream size                    : 63.9 MiB (13%)
Title                          : GOPISAHI
Language                       : Hindi

Audio #2
Format                         : AAC
Duration                       : 1 h 37 min
Bit rate                       : 89.8 kb/s
Channel(s)                     : 6 channels
Channel positions              : Front: L C R, Side: L R, LFE
Sampling rate                  : 44.1 kHz
Frame rate                     : 43.066 FPS (1024 SPF)
Compression mode               : Lossy
Stream size                    : 62.6 MiB (13%)
Title                          : GOPISAHI
Language                       : English
Default                        : No
Forced                         : No

Text
Language                       : English
 
 

Post a Comment

0 Comments