+18 Cover Me 1995 DVD Dual Audio English Hindi GOPISAHI - GOPISAHI

Tuesday, 12 June 2018

+18 Cover Me 1995 DVD Dual Audio English Hindi GOPISAHI


Format                         : Matroska
Format version                 : Version 4 / Version 2
File size                      : 325 MiB
Duration                       : 1 h 34 min
Overall bit rate               : 480 kb/s
Movie name                     : Cover Me 1995

Video
Format                         : AVC
Codec ID                       : V_MPEG4/ISO/AVC
Duration                       : 1 h 34 min
Bit rate                       : 300 kb/s
Width                          : 720 pixels
Height                         : 548 pixels
Display aspect ratio           : 4:3
Frame rate mode                : Constant
Frame rate                     : 25.000 FPS
Stream size                    : 203 MiB (63%)
Writing library                : x264

Audio #1
Format                         : AAC
Duration                       : 1 h 34 min
Bit rate                       : 93.3 kb/s
Channel(s)                     : 6 channels
Channel positions              : Front: L C R, Side: L R, LFE
Sampling rate                  : 44.1 kHz
Frame rate                     : 43.066 FPS (1024 SPF)
Compression mode               : Lossy
Stream size                    : 63.2 MiB (19%)
Language                       : English

Audio #2
Format                         : AAC
Duration                       : 1 h 34 min
Bit rate                       : 83.6 kb/s
Channel(s)                     : 6 channels
Channel positions              : Front: L C R, Side: L R, LFE
Sampling rate                  : 44.1 kHz
Frame rate                     : 43.066 FPS (1024 SPF)
Stream size                    : 56.7 MiB (17%)
Language                       : Hindi



 Cover Me
(1995) on IMDb

No comments:

Post a Comment