+18 Quarantine 2 Terminal 2011 x264 720p Esub HD Dual Audio English Hindi GOPISAHI - GOPISAHI

Wednesday, 20 June 2018

+18 Quarantine 2 Terminal 2011 x264 720p Esub HD Dual Audio English Hindi GOPISAHI


Format                         : Matroska
Format version                 : Version 4 / Version 2
File size                      : 662 MiB
Duration                       : 1 h 26 min
Overall bit rate               : 1 072 kb/s
Movie name                     : Quarantine 2 Terminal 2011 GOPISAHI

Video
Format                         : AVC
Codec ID                       : V_MPEG4/ISO/AVC
Duration                       : 1 h 26 min
Bit rate                       : 900 kb/s
Width                          : 1 280 pixels
Height                         : 718 pixels
Display aspect ratio           : 16:9
Frame rate mode                : Constant
Frame rate                     : 23.976 (24000/1001) FPS
Color space                    : YUV
Chroma subsampling             : 4:2:0
Bit depth                      : 8 bits
Scan type                      : Progressive
Bits/(Pixel*Frame)             : 0.041
Stream size                    : 556 MiB (84%)
Title                          : GOPISAHI
Writing library                : x264 core 155 r2893 b00bcaf

Audio #1
Format                         : AAC
Duration                       : 1 h 26 min
Bit rate                       : 82.3 kb/s
Channel(s)                     : 6 channels
Channel positions              : Front: L C R, Side: L R, LFE
Sampling rate                  : 44.1 kHz
Frame rate                     : 43.066 FPS (1024 SPF)
Compression mode               : Lossy
Stream size                    : 50.8 MiB (8%)
Title                          : GOPISAHI
Language                       : English

Audio #2
Format                         : AAC
Duration                       : 1 h 26 min
Bit rate                       : 86.8 kb/s
Channel(s)                     : 6 channels
Channel positions              : Front: L C R, Side: L R, LFE
Sampling rate                  : 44.1 kHz
Frame rate                     : 43.066 FPS (1024 SPF)
Compression mode               : Lossy
Delay relative to video        : 1 s 0 ms
Stream size                    : 53.6 MiB (8%)
Title                          : GOPISAHI
Language                       : Hindi

Text
Language                       : English

Menu
00:00:00.000                   : en:Chapter 1
00:05:06.056                   : en:Chapter 2
00:09:45.043                   : en:Chapter 3
00:14:11.059                   : en:Chapter 4
00:19:04.060                   : en:Chapter 5
00:24:57.079                   : en:Chapter 6
00:31:31.014                   : en:Chapter 7
00:35:12.068                   : en:Chapter 8
00:40:10.033                   : en:Chapter 9
00:47:26.010                   : en:Chapter 10
00:51:04.061                   : en:Chapter 11
00:57:02.002                   : en:Chapter 12
01:07:37.053                   : en:Chapter 13
01:10:59.005                   : en:Chapter 14
01:17:20.052                   : en:Chapter 15
01:22:02.000                   : en:Chapter 16






 Quarantine 2: Terminal
(2011) on IMDb

No comments:

Post a Comment