Search

A Thousand Words 2012 720p Esub BluRay Dual Audio English Hindi GOPISAHI

 Format                         : Matroska
Format version                 : Version 4 / Version 2
File size                      : 765 MiB
Duration                       : 1 h 31 min
Overall bit rate               : 1 168 kb/s
Movie name                     : A Thousand Words 2012

Video
Format                         : AVC
Codec ID                       : V_MPEG4/ISO/AVC
Duration                       : 1 h 31 min
Bit rate                       : 976 kb/s
Width                          : 1 280 pixels
Height                         : 528 pixels
Display aspect ratio           : 2.40:1
Frame rate mode                : Constant
Frame rate                     : 23.976 (24000/1001) FPS
Stream size                    : 639 MiB (84%)
Writing library                : x264

Audio #1
Format                         : AAC
Duration                       : 1 h 31 min
Bit rate                       : 91.5 kb/s
Channel(s)                     : 6 channels
Channel positions              : Front: L C R, Side: L R, LFE
Sampling rate                  : 48.0 kHz
Frame rate                     : 46.875 FPS (1024 SPF)
Stream size                    : 59.9 MiB (8%)
Language                       : English

Audio #2
Format                         : AAC
Duration                       : 1 h 31 min
Bit rate                       : 98.0 kb/s
Channel(s)                     : 6 channels
Channel positions              : Front: L C R, Side: L R, LFE
Sampling rate                  : 48.0 kHz
Frame rate                     : 46.875 FPS (1024 SPF)
Stream size                    : 64.2 MiB (8%)
Language                       : Hindi

Text
Language                       : English




 A Thousand Words
(2012) on IMDb

Post a Comment

0 Comments