Battle Planet 2008 720p Esub BluRay Dual Audio English Hindi GOPISAHI - GOPISAHI

Tuesday, 19 June 2018

Battle Planet 2008 720p Esub BluRay Dual Audio English Hindi GOPISAHI

Format                         : Matroska
Format version                 : Version 4 / Version 2
File size                      : 471 MiB
Duration                       : 1 h 25 min
Overall bit rate               : 771 kb/s
Movie name                     : Battle Planet 2008 GOPISAHI

Video
Format                         : AVC
Codec ID                       : V_MPEG4/ISO/AVC
Duration                       : 1 h 25 min
Bit rate                       : 600 kb/s
Width                          : 1 280 pixels
Height                         : 716 pixels
Display aspect ratio           : 16:9
Frame rate mode                : Constant
Frame rate                     : 23.976 (24000/1001) FPS
Stream size                    : 366 MiB (78%)
Title                          : GOPISAHI
Writing library                : x264 core 155 r2893 b00bcaf

Audio #1
Format                         : AAC
Duration                       : 1 h 25 min
Bit rate                       : 86.3 kb/s
Channel(s)                     : 6 channels
Channel positions              : Front: L C R, Side: L R, LFE
Sampling rate                  : 44.1 kHz
Frame rate                     : 43.066 FPS (1024 SPF)
Compression mode               : Lossy
Stream size                    : 52.5 MiB (11%)
Language                       : Hindi

Audio #2
Format                         : AAC
Duration                       : 1 h 25 min
Bit rate                       : 83.0 kb/s
Channel(s)                     : 6 channels
Channel positions              : Front: L C R, Side: L R, LFE
Sampling rate                  : 44.1 kHz
Frame rate                     : 43.066 FPS (1024 SPF)
Compression mode               : Lossy
Stream size                    : 50.5 MiB (11%)
Title                          : GOPISAHI
Language                       : English

Text
Language                       : English


 Battle Planet
(2008) on IMDb

No comments:

Post a Comment