Blackmail 2018 x264 720p HD 5.1 Esub Hindi GOPISAHI - GOPISAHI

Friday, 15 June 2018

Blackmail 2018 x264 720p HD 5.1 Esub Hindi GOPISAHI


Format                         : Matroska
Format version                 : Version 4 / Version 2
File size                      : 675 MiB
Duration                       : 2 h 16 min
Overall bit rate               : 690 kb/s
Movie name                     : Blackmail 2018 GOPISAHI

Video
Format                         : AVC
Codec ID                       : V_MPEG4/ISO/AVC
Duration                       : 2 h 16 min
Bit rate                       : 600 kb/s
Width                          : 1 280 pixels
Height                         : 542 pixels
Display aspect ratio           : 2.35:1
Frame rate mode                : Constant
Frame rate                     : 23.976 (23976/1000) FPS
Color space                    : YUV
Chroma subsampling             : 4:2:0
Bit depth                      : 8 bits
Scan type                      : Progressive
Bits/(Pixel*Frame)             : 0.036
Stream size                    : 587 MiB (87%)
Title                          : GOPISAHI
Writing library                : x264 core 155 r2893 b00bcaf
Language                       : Hindi

Audio
Format                         : AAC
Duration                       : 2 h 16 min
Bit rate                       : 87.9 kb/s
Channel(s)                     : 6 channels
Channel positions              : Front: L C R, Side: L R, LFE
Sampling rate                  : 44.1 kHz
Frame rate                     : 43.066 FPS (1024 SPF)
Compression mode               : Lossy
Stream size                    : 86.0 MiB (13%)
Title                          : GOPISAHI
Language                       : Hindi

Text
Language                       : English



TORRENT

MAGNET

https://www.linkshub.me/view/0qMOt3NTB7

 Blackmail
(2018) on IMDb

No comments:

Post a Comment