Boonie Bears The Big Top Secret 2016 x264 720p HD Dual Audio English Hindi GOPISAHI - GOPISAHI

Wednesday, 27 June 2018

Boonie Bears The Big Top Secret 2016 x264 720p HD Dual Audio English Hindi GOPISAHI


Format                         : Matroska
Format version                 : Version 4 / Version 2
File size                      : 767 MiB
Duration                       : 1 h 39 min
Overall bit rate               : 1 082 kb/s
Movie name                     : Boonie Bears The Big Top Secret 2016 GOPISAHI

Video
Format                         : AVC
Codec ID                       : V_MPEG4/ISO/AVC
Duration                       : 1 h 39 min
Bit rate                       : 899 kb/s
Width                          : 1 280 pixels
Height                         : 528 pixels
Display aspect ratio           : 2.40:1
Frame rate mode                : Constant
Frame rate                     : 24.000 FPS
Color space                    : YUV
Chroma subsampling             : 4:2:0
Bit depth                      : 8 bits
Scan type                      : Progressive
Bits/(Pixel*Frame)             : 0.055
Stream size                    : 636 MiB (83%)
Title                          : GOPISAHI
Writing library                : x264 core 152 r2851 ba24899: Yes

Audio #1
Format                         : AAC
Duration                       : 1 h 38 min
Bit rate                       : 86.0 kb/s
Channel(s)                     : 2 channels
Channel positions              : Front: L R
Sampling rate                  : 48.0 kHz
Frame rate                     : 46.875 FPS (1024 SPF)
Compression mode               : Lossy
Delay relative to video        : 23 ms
Stream size                    : 60.9 MiB (8%)
Title                          : GOPISAHI
Language                       : English

Audio #2
Format                         : AAC
Duration                       : 1 h 39 min
Bit rate                       : 96.0 kb/s
Channel(s)                     : 6 channels
Channel positions              : Front: L C R, Side: L R, LFE
Sampling rate                  : 48.0 kHz
Frame rate                     : 46.875 FPS (1024 SPF)
Compression mode               : Lossy
Stream size                    : 67.3 MiB (9%)
Title                          : GOPISAHI
Language                       : Hindi


 Boonie Bears: The Big Top Secret
(2016) on IMDb

No comments:

Post a Comment