Search

Damaged 2018 HD 720p Hindi GOPISAHI


Format                         : Matroska
Format version                 : Version 4 / Version 2
File size                      : 955 MiB
Duration                       : 5 h 21 min
Overall bit rate               : 416 kb/s
Movie name                     : Damaged 2018 GOPISAHI

Video
Format                         : AVC
Codec ID                       : V_MPEG4/ISO/AVC
Duration                       : 5 h 21 min
Bit rate                       : 350 kb/s
Width                          : 1 024 pixels
Height                         : 530 pixels
Display aspect ratio           : 1.932
Frame rate mode                : Constant
Frame rate                     : 30.000 FPS
Color space                    : YUV
Chroma subsampling             : 4:2:0
Bit depth                      : 8 bits
Scan type                      : Progressive
Bits/(Pixel*Frame)             : 0.021
Stream size                    : 803 MiB (84%)
Title                          : GOPISAHI
Writing library                : x264 core 155 r2893 b00bcaf
Language                       : Hindi

Audio
Format                         : AAC
Duration                       : 5 h 21 min
Bit rate                       : 63.6 kb/s
Channel(s)                     : 2 channels
Channel positions              : Front: L R
Sampling rate                  : 44.1 kHz
Frame rate                     : 43.066 FPS (1024 SPF)
Compression mode               : Lossy
Stream size                    : 146 MiB (15%)
Title                          : GOPISAHI
Language                       : Hindi








 Damaged
(2018) on IMDb

Post a Comment

0 Comments