Search

Dredd 2012 720p Esub BluRay Dual Audio English Hindi GOPISAHI


General
File size                      : 731 MiB
Duration                       : 1 h 35 min
Overall bit rate               : 1 066 kb/s

Video
Format                         : AVC
Codec ID                       : V_MPEG4/ISO/AVC
Duration                       : 1 h 35 min
Bit rate                       : 855 kb/s
Width                          : 1 280 pixels
Height                         : 536 pixels
Display aspect ratio           : 2.40:1
Frame rate mode                : Constant
Frame rate                     : 23.976 (24000/1001) FPS
Stream size                    : 586 MiB (80%)
Writing library                : x264 core 129 r2230 1cffe9f

Audio #1
Format                         : AAC
Duration                       : 1 h 34 min
Bit rate                       : 82.2 kb/s
Channel(s)                     : 6 channels
Channel positions              : Front: L C R, Side: L R, LFE
Sampling rate                  : 44.1 kHz
Frame rate                     : 43.066 FPS (1024 SPF)
Stream size                    : 55.4 MiB (8%)
Language                       : English

Audio #2
Codec ID/Hint                  : MP3
Duration                       : 1 h 35 min
Bit rate mode                  : Constant
Bit rate                       : 128 kb/s
Channel(s)                     : 2 channels
Sampling rate                  : 44.1 kHz
Frame rate                     : 38.222 FPS (1154 SPF)
Compression mode               : Lossy
Stream size                    : 87.6 MiB (12%)
Language                       : Hindi


TextI
Language                       : English


 Dredd
(2012) on IMDb

Post a Comment

0 Comments