Escape Plan 2 Hades 2018 x264 720p Esub English GOPISAHI - GOPISAHI

Friday, 15 June 2018

Escape Plan 2 Hades 2018 x264 720p Esub English GOPISAHI


Format                         : Matroska
Format version                 : Version 4 / Version 2
File size                      : 463 MiB
Duration                       : 1 h 33 min
Overall bit rate               : 691 kb/s
Movie name                     : Escape Plan 2 Hades 2018 GOPISAHI

Video
Format                         : AVC
Codec ID                       : V_MPEG4/ISO/AVC
Duration                       : 1 h 33 min
Bit rate                       : 600 kb/s
Width                          : 1 280 pixels
Height                         : 536 pixels
Display aspect ratio           : 2.40:1
Frame rate mode                : Constant
Frame rate                     : 23.976 (24000/1001) FPS
Color space                    : YUV
Chroma subsampling             : 4:2:0
Bit depth                      : 8 bits
Scan type                      : Progressive
Bits/(Pixel*Frame)             : 0.036
Stream size                    : 402 MiB (87%)
Title                          : GOPISAHI
Writing library                : x264 core 155 r2893 b00bcaf

Audio
Format                         : AAC
Duration                       : 1 h 33 min
Bit rate                       : 88.8 kb/s
Channel(s)                     : 6 channels
Channel positions              : Front: L C R, Side: L R, LFE
Sampling rate                  : 48.0 kHz
Frame rate                     : 46.875 FPS (1024 SPF)
Compression mode               : Lossy
Stream size                    : 59.4 MiB (13%)
Title                          : GOPISAHI
Language                       : English

Text
Language                       : English




TORRENT

MAGNET

 Escape Plan 2: Hades
(2018) on IMDb

No comments:

Post a Comment