Search

Forgetting Sarah Marshall 2008 720p Esub BlyRay Dual Audio English Hindi GOPISAHI

Format                         : Matroska
Format version                 : Version 4 / Version 2
File size                      : 655 MiB
Duration                       : 1 h 57 min
Overall bit rate               : 777 kb/s
Movie name                     : Forgetting Sarah Marshall 2008 GOPISAHI

Video
Format                         : AVC
Codec ID                       : V_MPEG4/ISO/AVC
Duration                       : 1 h 57 min
Bit rate                       : 600 kb/s
Width                          : 1 280 pixels
Height                         : 688 pixels
Display aspect ratio           : 1.85:1
Frame rate mode                : Constant
Frame rate                     : 23.976 (24000/1001) FPS
Stream size                    : 505 MiB (77%)
Writing library                : x264

Audio #1
Format                         : AAC
Duration                       : 1 h 57 min
Bit rate                       : 84.8 kb/s
Channel(s)                     : 6 channels
Channel positions              : Front: L C R, Side: L R, LFE
Sampling rate                  : 44.1 kHz
Frame rate                     : 43.066 FPS (1024 SPF)
Compression mode               : Lossy
Stream size                    : 71.5 MiB (11%)
Language                       : Hindi

Audio #2
Format                         : AAC
Duration                       : 1 h 57 min
Bit rate                       : 89.7 kb/s
Channel(s)                     : 6 channels
Channel positions              : Front: L C R, Side: L R, LFE
Sampling rate                  : 44.1 kHz
Frame rate                     : 43.066 FPS (1024 SPF)
Compression mode               : Lossy
Stream size                    : 75.5 MiB (12%)
Language                       : English

Text
Language                       : English





 Forgetting Sarah Marshall
(2008) on IMDb

Post a Comment

0 Comments