Search

Game of Thrones 2011 S01E04- Cripples, Bastards, and Broken Things x264 720p Esub BluRay Dual Audio English Hindi GOPISAHI


Format                         : Matroska
Format version                 : Version 4 / Version 2
File size                      : 316 MiB
Duration                       : 55 min 37 s
Overall bit rate               : 795 kb/s
Movie name                     : Game of Thrones 2011 S01E04- Cripples, Bastards, and Broken Things

Video
Format                         : AVC
Codec ID                       : V_MPEG4/ISO/AVC
Duration                       : 55 min 37 s
Bit rate                       : 600 kb/s
Width                          : 1 280 pixels
Height                         : 720 pixels
Display aspect ratio           : 16:9
Frame rate mode                : Constant
Frame rate                     : 23.976 (24000/1001) FPS
Color space                    : YUV
Chroma subsampling             : 4:2:0
Bit depth                      : 8 bits
Scan type                      : Progressive
Bits/(Pixel*Frame)             : 0.027
Stream size                    : 238 MiB (75%)
Title                          : GOPISAHI
Writing library                : x264 core 155 r2893 b00bcaf

Audio #1
Format                         : AAC
Duration                       : 55 min 35 s
Bit rate                       : 96.0 kb/s
Channel(s)                     : 2 channels
Channel positions              : Front: L R
Sampling rate                  : 48.0 kHz
Frame rate                     : 46.875 FPS (1024 SPF)
Compression mode               : Lossy
Stream size                    : 38.2 MiB (12%)
Title                          : GOPISAHI
Language                       : Hindi

Audio #2
Format                         : AAC
Duration                       : 55 min 37 s
Bit rate                       : 96.0 kb/s
Channel(s)                     : 2 channels
Channel positions              : Front: L R
Sampling rate                  : 48.0 kHz
Frame rate                     : 46.875 FPS (1024 SPF)
Compression mode               : Lossy
Delay relative to video        : 30 ms
Stream size                    : 38.3 MiB (12%)
Title                          : GOPISAHI
Language                       : English

Text
Language                       : English

Menu
00:00:00.000                   : en:00:00:00.000
00:00:06.089                   : en:00:00:06.006
00:01:47.190                   : en:00:01:47.107
00:06:41.359                   : en:00:06:41.359
00:17:10.238                   : en:00:17:10.238
00:27:43.370                   : en:00:27:43.370
00:37:12.814                   : en:00:37:12.814
00:45:37.902                   : en:00:45:37.902
00:54:33.729                   : en:00:54:33.687


 Cripples, Bastards, and Broken Things
(2011) on IMDb

Post a Comment

4 Comments

  1. You are the first to post episode 4 season 1 that's why I like this website keep doing good work

    ReplyDelete
  2. Please post all episodes of Game of Thrones in Hindi

    ReplyDelete
  3. I have seen season 1 episode 1 2 and 3 please upload rest of the episodes of Season 1 in Hindi

    ReplyDelete