Game of Thrones S01 E01 Winter Is Coming 2011 x264 720p Esub BluRay Dual Audio English Hindi GOPISAHI - GOPISAHI

Sunday, 17 June 2018

Game of Thrones S01 E01 Winter Is Coming 2011 x264 720p Esub BluRay Dual Audio English Hindi GOPISAHI


Format                         : Matroska
Format version                 : Version 4 / Version 2
File size                      : 343 MiB
Duration                       : 1 h 1 min
Overall bit rate               : 777 kb/s
Movie name                     : Game of Thrones S01 E01 Winter Is Coming GOPISAHI

Video
Format                         : AVC
Codec ID                       : V_MPEG4/ISO/AVC
Duration                       : 1 h 1 min
Bit rate                       : 600 kb/s
Width                          : 1 280 pixels
Height                         : 720 pixels
Display aspect ratio           : 16:9
Frame rate mode                : Constant
Frame rate                     : 23.976 (24000/1001) FPS
Color space                    : YUV
Chroma subsampling             : 4:2:0
Bit depth                      : 8 bits
Scan type                      : Progressive
Bits/(Pixel*Frame)             : 0.027
Stream size                    : 264 MiB (77%)
Title                          : GOPISAHI
Writing library                : x264 core 155 r2893 b00bcaf

Audio #1
Format                         : AAC
Duration                       : 1 h 1 min
Bit rate                       : 88.6 kb/s
Channel(s)                     : 6 channels
Channel positions              : Front: L C R, Side: L R, LFE
Sampling rate                  : 44.1 kHz
Frame rate                     : 43.066 FPS (1024 SPF)
Compression mode               : Lossy
Stream size                    : 39.1 MiB (11%)
Title                          : GOPISAHI
Language                       : Hindi

Audio #2
Format                         : AAC
Duration                       : 1 h 1 min
Bit rate                       : 86.3 kb/s
Channel(s)                     : 6 channels
Channel positions              : Front: L C R, Side: L R, LFE
Sampling rate                  : 44.1 kHz
Frame rate                     : 43.066 FPS (1024 SPF)
Compression mode               : Lossy
Stream size                    : 38.0 MiB (11%)
Title                          : GOPISAHI
Language                       : English

Text
Language                       : English

Menu
00:00:00.000                   : en:00:00:00.000
00:00:06.089                   : en:00:00:06.006
00:07:16.478                   : en:00:07:16.436
00:08:56.661                   : en:00:08:56.536
00:18:14.510                   : en:00:18:14.510
00:28:46.558                   : en:00:28:46.558
00:39:35.748                   : en:00:39:35.582
00:50:00.039                   : en:00:50:00.039
01:00:32.671                   : en:01:00:32.629




 Game of Thrones Premiere

No comments:

Post a Comment