Search

Game of Thrones S01E02 The Kingsroad 20011 x264 720p Esub BluRay Dual Audio English Hindi GOPISAHI


Format                         : Matroska
Format version                 : Version 4 / Version 2
File size                      : 307 MiB
Duration                       : 55 min 17 s
Overall bit rate               : 776 kb/s
Movie name                     : Game of Thrones S01E02 The Kingsroad 20011 GOPISAHI

Video
Format                         : AVC
Format/Info                    : Advanced Video Codec
Codec ID                       : V_MPEG4/ISO/AVC
Duration                       : 55 min 17 s
Bit rate                       : 600 kb/s
Width                          : 1 280 pixels
Height                         : 720 pixels
Display aspect ratio           : 16:9
Frame rate mode                : Constant
Frame rate                     : 23.976 (24000/1001) FPS
Color space                    : YUV
Chroma subsampling             : 4:2:0
Bit depth                      : 8 bits
Scan type                      : Progressive
Bits/(Pixel*Frame)             : 0.027
Stream size                    : 237 MiB (77%)
Title                          : GOPISAHI
Writing library                : x264 core 155 r2893 b00bcaf

Audio #1
Format                         : AAC
Duration                       : 55 min 17 s
Bit rate                       : 85.3 kb/s
Channel(s)                     : 6 channels
Channel positions              : Front: L C R, Side: L R, LFE
Sampling rate                  : 44.1 kHz
Frame rate                     : 43.066 FPS (1024 SPF)
Compression mode               : Lossy
Stream size                    : 33.7 MiB (11%)
Title                          : GOPISAHI
Language                       : English
Default                        : Yes
Forced                         : No

Audio #2
Format                         : AAC
Duration                       : 55 min 17 s
Bit rate                       : 88.8 kb/s
Channel(s)                     : 6 channels
Channel positions              : Front: L C R, Side: L R, LFE
Sampling rate                  : 44.1 kHz
Frame rate                     : 43.066 FPS (1024 SPF)
Compression mode               : Lossy
Stream size                    : 35.1 MiB (11%)
Title                          : GOPISAHI
Language                       : Hindi

Text
Language                       : English

Menu
00:00:00.000                   : en:00:00:00.000
00:00:06.089                   : en:00:00:06.006
00:01:47.149                   : en:00:01:47.107
00:08:43.398                   : en:00:08:43.398
00:18:47.793                   : en:00:18:47.793
00:28:42.095                   : en:00:28:41.929
00:38:19.005                   : en:00:38:18.922
00:46:46.178                   : en:00:46:46.012
00:54:12.750                   : en:00:54:12.666



 The Kingsroad
(2011) on IMDb

Post a Comment

0 Comments