Game of Thrones S01E03 Lord Snow 2011 x264 720p Esub BluRay Dual Audio English Hindi GOPISAHI - GOPISAHI

Thursday, 21 June 2018

Game of Thrones S01E03 Lord Snow 2011 x264 720p Esub BluRay Dual Audio English Hindi GOPISAHI


Format                         : Matroska
Format version                 : Version 4 / Version 2
File size                      : 318 MiB
Duration                       : 57 min 14 s
Overall bit rate               : 777 kb/s
Movie name                     : Game of Thrones S01E03 Lord Snow GOPISAHI

Video
Format                         : AVC
Codec ID                       : V_MPEG4/ISO/AVC
Duration                       : 57 min 14 s
Bit rate                       : 600 kb/s
Width                          : 1 280 pixels
Height                         : 720 pixels
Display aspect ratio           : 16:9
Frame rate mode                : Constant
Frame rate                     : 23.976 (24000/1001) FPS
Color space                    : YUV
Chroma subsampling             : 4:2:0
Bit depth                      : 8 bits
Scan type                      : Progressive
Bits/(Pixel*Frame)             : 0.027
Stream size                    : 245 MiB (77%)
Title                          : GOPISAHI
Writing library                : x264 core 155 r2893 b00bcaf

Audio #1
Format                         : AAC
Duration                       : 57 min 14 s
Bit rate                       : 86.0 kb/s
Channel(s)                     : 6 channels
Channel positions              : Front: L C R, Side: L R, LFE
Sampling rate                  : 44.1 kHz
Frame rate                     : 43.066 FPS (1024 SPF)
Compression mode               : Lossy
Stream size                    : 35.2 MiB (11%)
Title                          : GOPISAHI
Language                       : English

Audio #2
Format                         : AAC
Duration                       : 57 min 14 s
Bit rate                       : 89.2 kb/s
Channel(s)                     : 6 channels
Channel positions              : Front: L C R, Side: L R, LFE
Sampling rate                  : 44.1 kHz
Frame rate                     : 43.066 FPS (1024 SPF)
Compression mode               : Lossy
Stream size                    : 36.5 MiB (11%)
Title                          : GOPISAHI
Language                       : Hindi

Text
Language                       : English

Menu
00:00:00.000                   : en:00:00:00.000
00:00:06.089                   : en:00:00:06.006
00:01:47.190                   : en:00:01:47.107
00:08:11.282                   : en:00:08:11.282
00:18:50.254                   : en:00:18:50.254
00:27:19.721                   : en:00:27:19.721
00:38:17.587                   : en:00:38:17.587
00:45:46.410                   : en:00:45:46.410
00:56:06.905                   : en:00:56:06.780





 Lord Snow
(2011) on IMDb

3 comments:

  1. Bro Direct link kaha hai.... pleases provide

    ReplyDelete
    Replies
    1. SORRY I FORGET ADDDED

      Delete
    2. Ok bro...it's ok Next no
      Forget

      Delete