Game of Thrones S01E05- The Wolf and the Lion 2011 x264 720p Esub BluRay Dual Audio English Hindi GOPISAHI - GOPISAHI

Thursday, 28 June 2018

Game of Thrones S01E05- The Wolf and the Lion 2011 x264 720p Esub BluRay Dual Audio English Hindi GOPISAHI


Format                         : Matroska
Format version                 : Version 4 / Version 2
File size                      : 301 MiB
Duration                       : 54 min 16 s
Overall bit rate               : 776 kb/s
Movie name                     : Game of Thrones S01E05- The Wolf and the Lion 2011 GOPISAHI

Video
Format                         : AVC
Codec ID                       : V_MPEG4/ISO/AVC
Duration                       : 54 min 16 s
Bit rate                       : 600 kb/s
Width                          : 1 280 pixels
Height                         : 720 pixels
Display aspect ratio           : 16:9
Frame rate mode                : Constant
Frame rate                     : 23.976 (24000/1001) FPS
Color space                    : YUV
Chroma subsampling             : 4:2:0
Bit depth                      : 8 bits
Scan type                      : Progressive
Bits/(Pixel*Frame)             : 0.027
Stream size                    : 233 MiB (77%)
Title                          : GOPISAHI
Writing library                : x264 core 155 r2893 b00bcaf

Audio #1
Format                         : AAC
Duration                       : 54 min 16 s
Bit rate                       : 84.4 kb/s
Channel(s)                     : 6 channels
Channel positions              : Front: L C R, Side: L R, LFE
Sampling rate                  : 44.1 kHz
Frame rate                     : 43.066 FPS (1024 SPF)
Compression mode               : Lossy
Stream size                    : 32.8 MiB (11%)
Title                          : GOPISAHI
Language                       : English

Audio #2
Format                         : AAC
Duration                       : 54 min 16 s
Bit rate                       : 88.7 kb/s
Channel(s)                     : 6 channels
Channel positions              : Front: L C R, Side: L R, LFE
Sampling rate                  : 44.1 kHz
Frame rate                     : 43.066 FPS (1024 SPF)
Compression mode               : Lossy
Stream size                    : 34.4 MiB (11%)
Title                          : GOPISAHI
Language                       : Hindi

Text
Language                       : English

Menu
00:00:00.000                   : en:00:00:00.000
00:00:06.089                   : en:00:00:06.006
00:01:52.154                   : en:00:01:52.112
00:06:23.884                   : en:00:06:23.883
00:16:15.975                   : en:00:16:15.975
00:25:50.883                   : en:00:25:50.883
00:34:14.344                   : en:00:34:14.344
00:41:50.633                   : en:00:41:50.633
00:53:09.228                   : en:00:53:09.186










 The Wolf and the Lion
(2011) on IMDb

No comments:

Post a Comment