Hashar A Love Story 2008 x264 DVD RIP Punjabi GOPISAHI - GOPISAHI

Sunday, 17 June 2018

Hashar A Love Story 2008 x264 DVD RIP Punjabi GOPISAHI


Format                         : Matroska
Format version                 : Version 4 / Version 2
File size                      : 479 MiB
Duration                       : 2 h 54 min
Overall bit rate               : 383 kb/s
Movie name                     : Hashar A Love Story 2008 GOPISAHI

Video
Format/Info                    : Advanced Video Codec
Codec ID                       : V_MPEG4/ISO/AVC
Duration                       : 2 h 54 min
Bit rate                       : 350 kb/s
Width                          : 720 pixels
Height                         : 308 pixels
Display aspect ratio           : 2.35:1
Frame rate mode                : Constant
Frame rate                     : 23.976 (24000/1001) FPS
Color space                    : YUV
Chroma subsampling             : 4:2:0
Bit depth                      : 8 bits
Scan type                      : Progressive
Bits/(Pixel*Frame)             : 0.066
Stream size                    : 437 MiB (91%)
Title                          : GOPISAHI
Writing library                : x264 core 142 r2479 dd79a61

Audio
Format/Info                    : Advanced Audio Codec
Duration                       : 2 h 54 min
Bit rate                       : 32.0 kb/s
Channel(s)                     : 2 channels
Channel positions              : Front: L R
Sampling rate                  : 22.05 kHz / 11.025 kHz
Frame rate                     : 10.767 FPS (1024 SPF)
Compression mode               : Lossy
Delay relative to video        : -229 ms
Stream size                    : 40.0 MiB (8%)
Title                          : GOPISAHI
Language                       : Panjabi



https://linkshub.me/view/kfSO5yPKPT

 Hashar: A Love Story...
(2008) on IMDb

No comments:

Post a Comment