I Robot 2004 720p Esub BlyRay Dual Audio English Hindi GOPISAHI - GOPISAHI

Sunday, 10 June 2018

I Robot 2004 720p Esub BlyRay Dual Audio English Hindi GOPISAHI


Format                         : Matroska
Format version                 : Version 4 / Version 2
File size                      : 816 MiB
Duration                       : 1 h 54 min
Overall bit rate               : 994 kb/s
Movie name                     : I Robot 2004 GOPISAHI

Video
Format                         : AVC
Codec ID                       : V_MPEG4/ISO/AVC
Duration                       : 1 h 54 min
Bit rate                       : 819 kb/s
Width                          : 1 280 pixels
Height                         : 544 pixels
Display aspect ratio           : 2.35:1
Frame rate mode                : Constant
Frame rate                     : 23.976 (24000/1001) FPS
Stream size                    : 672 MiB (82%)
Writing library                : x264 core 125 r2200 999b753

Audio #1
Format                         : AAC
Duration                       : 1 h 54 min
Bit rate                       : 83.4 kb/s
Channel(s)                     : 6 channels
Channel positions              : Front: L C R, Side: L R, LFE
Sampling rate                  : 44.1 kHz
Frame rate                     : 43.066 FPS (1024 SPF)
Stream size                    : 68.5 MiB (8%)
Language                       : English

Audio #2
Format                         : AAC
Duration                       : 1 h 54 min
Bit rate                       : 89.2 kb/s
Channel(s)                     : 6 channels
Channel positions              : Front: L C R, Side: L R, LFE
Sampling rate                  : 44.1 kHz
Frame rate                     : 43.066 FPS (1024 SPF)
Stream size                    : 73.2 MiB (9%)
Language                       : Hindi

Text
Language                       : English


No comments:

Post a Comment