Intlo Deyyam Nakem Bhayam 2016 720p UNCUT HDRip x264 Dual Audio Hindi Telugu GOPISAHI - GOPISAHI

Thursday, 28 June 2018

Intlo Deyyam Nakem Bhayam 2016 720p UNCUT HDRip x264 Dual Audio Hindi Telugu GOPISAHI


Format                         : Matroska
Format version                 : Version 4 / Version 2
File size                      : 835 MiB
Duration                       : 2 h 10 min
Overall bit rate               : 891 kb/s
Movie name                     : Intlo Deyyam Nakem Bhayam 2016 GOPISAHI

Video
Format                         : AVC
Codec ID                       : V_MPEG4/ISO/AVC
Duration                       : 2 h 10 min
Bit rate                       : 699 kb/s
Width                          : 1 266 pixels
Height                         : 540 pixels
Display aspect ratio           : 2.35:1
Original display aspect ratio  : 2.35:1
Frame rate mode                : Constant
Frame rate                     : 25.000 FPS
Color space                    : YUV
Chroma subsampling             : 4:2:0
Bit depth                      : 8 bits
Scan type                      : Progressive
Bits/(Pixel*Frame)             : 0.041
Stream size                    : 655 MiB (78%)
Title                          : GOPISAHI
Writing library                : x264 core 155 r2893 b00bcaf

Audio #1
Format                         : AAC
Duration                       : 2 h 10 min
Bit rate                       : 96.0 kb/s
Channel(s)                     : 2 channels
Channel positions              : Front: L R
Sampling rate                  : 48.0 kHz
Frame rate                     : 46.875 FPS (1024 SPF)
Compression mode               : Lossy
Delay relative to video        : -21 ms
Stream size                    : 90.0 MiB (11%)
Title                          : GOPISAHI
Language                       : Hindi

Audio #2
Format                         : AAC
Duration                       : 2 h 10 min
Bit rate                       : 93.6 kb/s
Channel(s)                     : 2 channels
Channel positions              : Front: L R
Sampling rate                  : 44.1 kHz
Frame rate                     : 43.066 FPS (1024 SPF)
Compression mode               : Lossy
Delay relative to video        : -21 ms
Stream size                    : 87.7 MiB (10%)
Title                          : GOPISAHI
Language                       : Telugu






https://www.linkshub.me/view/KWhcDEdTZY


 Intlo Dayyam Nakemi Bhayam
(2016) on IMDb

No comments:

Post a Comment