Search

Ittefaq 2017 720p Esub HD Hindi GOPISAHI

Format version                 : Version 4 / Version 2
File size                      : 519 MiB
Duration                       : 1 h 45 min
Overall bit rate               : 687 kb/s
Movie name                     : Ittefaq 2017 GOPISAHI

Video
Format                         : AVC
Codec ID                       : V_MPEG4/ISO/AVC
Duration                       : 1 h 45 min
Bit rate                       : 600 kb/s
Width                          : 1 280 pixels
Height                         : 536 pixels
Display aspect ratio           : 2.40:1
Frame rate mode                : Constant
Frame rate                     : 30.000 FPS
Stream size                    : 453 MiB (87%)
Title                          : GOPISAHI
Writing library                : x264 core 152 r2851 ba24899

Audio
Format                         : AAC
Duration                       : 1 h 45 min
Bit rate                       : 84.8 kb/s
Channel(s)                     : 6 channels
Channel positions              : Front: L C R, Side: L R, LFE
Sampling rate                  : 44.1 kHz
Frame rate                     : 43.066 FPS (1024 SPF)
Stream size                    : 64.0 MiB (12%)
Title                          : GOPISAHI
Language                       : Hindi

Text
Language                       : English




 Ittefaq
(2017) on IMDb

Post a Comment

0 Comments