Search

Jora 10 Numbaria 2017 720p HD Punjabi GOPISAHI

 Format                         : Matroska
Format version                 : Version 4 / Version 2
File size                      : 568 MiB
Duration                       : 2 h 14 min
Overall bit rate               : 589 kb/s
Movie name                     : Jora 10 Numbaria 2017 

Video
Format                         : AVC
Codec ID                       : V_MPEG4/ISO/AVC
Duration                       : 2 h 14 min
Bit rate                       : 500 kb/s
Width                          : 1 280 pixels
Height                         : 536 pixels
Display aspect ratio           : 2.40:1
Frame rate mode                : Constant
Frame rate                     : 24.000 FPS
Stream size                    : 482 MiB (85%)
Writing library                : x264 

Audio: 2
Format                         : AAC
Duration                       : 2 h 14 min
Bit rate                       : 87.4 kb/s
Channel(s)                     : 6 channels
Channel positions              : Front: L C R, Side: L R, LFE
Sampling rate                  : 44.1 kHz
Frame rate                     : 43.066 FPS (1024 SPF)
Compression mode               : Lossy
Stream size                    : 84.3 MiB (15%)
Language                       : Panjabi


 Jora 10 Numbaria
(2017) on IMDb

Post a Comment

0 Comments