Journey 2 The Mysterious Island 2012 720p Esub BluRay Dual Audio English Hindi GOPISAHI - GOPISAHI

Thursday, 14 June 2018

Journey 2 The Mysterious Island 2012 720p Esub BluRay Dual Audio English Hindi GOPISAHI

Format                         : Matroska
Format version                 : Version 4 / Version 2
File size                      : 712 MiB
Duration                       : 1 h 34 min
Overall bit rate               : 1 056 kb/s
Movie name                     : Journey 2 The Mysterious Island 2012
Video
Format                         : AVC
Codec ID                       : V_MPEG4/ISO/AVC
Duration                       : 1 h 34 min
Bit rate                       : 899 kb/s
Width                          : 1 280 pixels
Height                         : 720 pixels
Display aspect ratio           : 16:9
Frame rate mode                : Constant
Frame rate                     : 23.976 (24000/1001) FPS
Stream size                    : 605 MiB (85%)
Writing library                : x264 core 133 r2334 a3ac64b
Audio #1
Format                         : AAC
Duration                       : 1 h 34 min
Bit rate                       : 87.4 kb/s
Channel(s)                     : 6 channels
Channel positions              : Front: L C R, Side: L R, LFE
Sampling rate                  : 44.1 kHz
Frame rate                     : 43.066 FPS (1024 SPF)
Compression mode               : Lossy
Stream size                    : 58.9 MiB (8%)
Language                       : English
Audio #2
Format                         : AAC
Duration                       : 1 h 34 min
Bit rate                       : 66.2 kb/s
Channel(s)                     : 6 channels
Channel positions              : Front: L C R, Side: L R, LFE
Sampling rate                  : 44.1 kHz
Frame rate                     : 43.066 FPS (1024 SPF)
Compression mode               : Lossy
Stream size                    : 45.4 MiB (6%)
Language                       : Hindi
Text
Language                       : English


 Journey 2: The Mysterious Island
(2012) on IMDb

No comments:

Post a Comment