Search

Laavaan Phere 2018 x264 720p HD 5.1 Punjabi GOPISAHI


Format                         : Matroska
Format version                 : Version 4 / Version 2
File size                      : 665 MiB
Duration                       : 2 h 3 min
Overall bit rate               : 752 kb/s
Movie name                     : Laavaan Phere 2018 GOPISAHI

Video
Format                         : AVC
Codec ID                       : V_MPEG4/ISO/AVC
Duration                       : 2 h 3 min
Bit rate                       : 600 kb/s
Width                          : 1 280 pixels
Height                         : 664 pixels
Display aspect ratio           : 1.928
Frame rate mode                : Constant
Frame rate                     : 25.000 FPS
Color space                    : YUV
Chroma subsampling             : 4:2:0
Bit depth                      : 8 bits
Scan type                      : Progressive
Bits/(Pixel*Frame)             : 0.028
Stream size                    : 530 MiB (80%)
Title                          : GOPISAHI
Writing library                : x264 core 155 r2893 b00bcaf

Audio
Format                         : AAC
Duration                       : 2 h 3 min
Bit rate                       : 150 kb/s
Channel(s)                     : 2 channels
Channel positions              : Front: L R
Sampling rate                  : 44.1 kHz
Frame rate                     : 43.066 FPS (1024 SPF)
Compression mode               : Lossy
Stream size                    : 132 MiB (20%)
Title                          : GOPISAHI
Language                       : Panjabi





 Laavaan Phere
(2018) on IMDb

Post a Comment

0 Comments