Largo Winch II 2011 720p Esub BluRay Dual Audio English Hindi GOPISAHI - GOPISAHI

Friday, 15 June 2018

Largo Winch II 2011 720p Esub BluRay Dual Audio English Hindi GOPISAHI

 Format                         : Matroska
Format version                 : Version 4 / Version 2
File size                      : 790 MiB
Duration                       : 1 h 58 min
Overall bit rate               : 931 kb/s
Movie name                     : Largo Winch 2011 GOPISAHI

Video
Format                         : AVC
Codec ID                       : V_MPEG4/ISO/AVC
Duration                       : 1 h 58 min
Bit rate                       : 759 kb/s
Width                          : 1 280 pixels
Height                         : 536 pixels
Display aspect ratio           : 2.40:1
Frame rate mode                : Constant
Frame rate                     : 23.976 (24000/1001) FPS
Stream size                    : 642 MiB (81%)
Writing library                : x264

Audio #1
Format                         : AAC
Duration                       : 1 h 58 min
Bit rate                       : 85.7 kb/s
Channel(s)                     : 6 channels
Channel positions              : Front: L C R, Side: L R, LFE
Sampling rate                  : 44.1 kHz
Frame rate                     : 43.066 FPS (1024 SPF)
Stream size                    : 72.5 MiB (9%)
Language                       : English

Audio #2
Format                         : AAC
Duration                       : 1 h 58 min
Bit rate                       : 85.6 kb/s
Channel(s)                     : 6 channels
Channel positions              : Front: L C R, Side: L R, LFE
Sampling rate                  : 44.1 kHz
Frame rate                     : 43.066 FPS (1024 SPF)
Stream size                    : 72.6 MiB (9%)
Language                       : Hindi

Text
Language                       : English


 The Burma Conspiracy
(2011) on IMDb

No comments:

Post a Comment