Love Punjab 2016 Punjabi 720p DVD RIP GOPI SAHI - GOPISAHI

Wednesday, 20 June 2018

Love Punjab 2016 Punjabi 720p DVD RIP GOPI SAHI

Love Punjab Poster
Video
ID                             : 1
Format                         : AVC
Codec ID                       : V_MPEG4/ISO/AVC
Duration                       : 2 h 10 min
Bit rate                       : 899 kb/s
Width                          : 1 280 pixels
Height                         : 656 pixels
Display aspect ratio           : 1.951
Frame rate mode                : Constant
Frame rate                     : 23.976 (24000/1001) FPS
Stream size                    : 834 MiB (93%)
Writing library                : x264 core 130 r2273 b3065e6
Audio
ID                             : 2
Format                         : AAC
Duration                       : 2 h 10 min
Bit rate                       : 61.5 kb/s
Channel(s)                     : 6 channels
Channel positions              : Front: L C R, Side: L R, LFE
Sampling rate                  : 44.1 kHz
Frame rate                     : 43.066 FPS (1024 spf)
Stream size                    : 57.3 MiB (6%)
http://i.imgur.com/LmMCYgm.jpg
http://i.imgur.com/u1vuNHU.jpg
http://i.imgur.com/w1QeUxp.jpg


 Love Punjab
(2016) on IMDb

No comments:

Post a Comment