Search

Mr. Fraud 2014 720p Uncut Dvdrip X264 ESub Dual Audio Hindi Malayalam GOPISAHI


Format                         : Matroska
Format version                 : Version 4 / Version 2
File size                      : 371 MiB
Duration                       : 2 h 15 min
Overall bit rate               : 381 kb/s
Movie name                     : Mr. Fraud 2014 GOPISAHI

Video
Format                         : AVC
Codec ID                       : V_MPEG4/ISO/AVC
Duration                       : 2 h 15 min
Bit rate                       : 250 kb/s
Width                          : 720 pixels
Height                         : 306 pixels
Display aspect ratio           : 2.35:1
Frame rate mode                : Constant
Frame rate                     : 23.976 (24000/1001) FPS
Color space                    : YUV
Chroma subsampling             : 4:2:0
Bit depth                      : 8 bits
Scan type                      : Progressive
Bits/(Pixel*Frame)             : 0.047
Stream size                    : 243 MiB (66%)
Title                          : GOPISAHI
Writing library                : x264 core 148 r2708 86b7198

Audio #1
Format                         : AAC
Duration                       : 2 h 15 min
Bit rate                       : 64.0 kb/s
Channel(s)                     : 2 channels
Channel positions              : Front: L R
Sampling rate                  : 48.0 kHz
Frame rate                     : 46.875 FPS (1024 SPF)
Compression mode               : Lossy
Delay relative to video        : -21 ms
Stream size                    : 62.3 MiB (17%)
Title                          : GOPISAHI
Language                       : Hindi

Audio #2
Format                         : AAC
Duration                       : 2 h 15 min
Bit rate                       : 64.3 kb/s
Channel(s)                     : 2 channels
Channel positions              : Front: L R
Sampling rate                  : 48.0 kHz
Frame rate                     : 46.875 FPS (1024 SPF)
Compression mode               : Lossy
Delay relative to video        : -21 ms
Stream size                    : 62.5 MiB (17%)
Title                          : GOPISAHI
Language                       : Malayalam

Text
Language                       : English



 Mr. Fraud
(2014) on IMDb

Post a Comment

0 Comments