Search

Munnodi 2017 480p UNCUT HDRip x264 ESub Dual Audio Hindi Tamil GOPISAHI


Format                         : Matroska
Format version                 : Version 4 / Version 2
File size                      : 388 MiB
Duration                       : 2 h 28 min
Overall bit rate               : 366 kb/s
Movie name                     : Munnodi 2017 GOPISAHI

Video
ID                             : 1
Format                         : AVC
Format/Info                    : Advanced Video Codec
Format profile                 : [email protected]
Format settings                : CABAC / 8 Ref Frames
Format settings, CABAC         : Yes
Format settings, ReFrames      : 8 frames
Codec ID                       : V_MPEG4/ISO/AVC
Duration                       : 2 h 28 min
Bit rate                       : 250 kb/s
Width                          : 700 pixels
Height                         : 298 pixels
Display aspect ratio           : 2.35:1
Original display aspect ratio  : 2.35:1
Frame rate mode                : Constant
Frame rate                     : 24.000 FPS
Color space                    : YUV
Chroma subsampling             : 4:2:0
Bit depth                      : 8 bits
Scan type                      : Progressive
Bits/(Pixel*Frame)             : 0.050
Stream size                    : 265 MiB (68%)
Title                          : GOPISAHI
Writing library                : x264 core 155 r2893 b00bcaf
Language                       : Hindi

Audio #1
Format                         : AAC
Duration                       : 2 h 28 min
Bit rate                       : 56.5 kb/s
Channel(s)                     : 2 channels
Channel positions              : Front: L R
Sampling rate                  : 44.1 kHz
Frame rate                     : 43.066 FPS (1024 SPF)
Compression mode               : Lossy
Stream size                    : 60.0 MiB (15%)
Title                          : GOPISAHI
Language                       : Tamil

Audio #2
Format                         : AAC
Duration                       : 2 h 28 min
Bit rate                       : 56.5 kb/s
Channel(s)                     : 2 channels
Channel positions              : Front: L R
Sampling rate                  : 44.1 kHz
Frame rate                     : 43.066 FPS (1024 SPF)
Compression mode               : Lossy
Stream size                    : 60.0 MiB (15%)
Title                          : GOPISAHI
Language                       : Hindi

Text
Language                       : English



https://linkshub.me/view/ne8EFHrFtD

 Munnodi
(2017) on IMDb

Post a Comment

0 Comments