Muthuramalingam 2017 480p UNCUT HDRip x264 ESub Dual Audio Hindi Tamil GOPISAHI - GOPISAHI

Sunday, 24 June 2018

Muthuramalingam 2017 480p UNCUT HDRip x264 ESub Dual Audio Hindi Tamil GOPISAHI


Format                         : Matroska
Format version                 : Version 4 / Version 2
File size                      : 357 MiB
Duration                       : 2 h 16 min
Overall bit rate               : 365 kb/s
Movie name                     : Muthuramalingam 2017 GOPISAHI

Video
Format                         : AVC
Codec ID                       : V_MPEG4/ISO/AVC
Duration                       : 2 h 16 min
Bit rate                       : 250 kb/s
Width                          : 700 pixels
Height                         : 298 pixels
Display aspect ratio           : 2.35:1
Original display aspect ratio  : 2.35:1
Frame rate mode                : Constant
Frame rate                     : 24.000 FPS
Color space                    : YUV
Chroma subsampling             : 4:2:0
Bit depth                      : 8 bits
Scan type                      : Progressive
Bits/(Pixel*Frame)             : 0.050
Stream size                    : 244 MiB (68%)
Title                          : GOPISAHI
Writing library                : x264 core 155 r2893 b00bcaf

Audio #1
Format                         : AAC
Duration                       : 2 h 16 min
Bit rate                       : 56.2 kb/s
Channel(s)                     : 2 channels
Channel positions              : Front: L R
Sampling rate                  : 44.1 kHz
Frame rate                     : 43.066 FPS (1024 SPF)
Compression mode               : Lossy
Stream size                    : 55.0 MiB (15%)
Title                          : GOPISAHI
Language                       : Hindi

Audio #2
Format                         : AAC
Duration                       : 2 h 16 min
Bit rate                       : 56.2 kb/s
Channel(s)                     : 2 channels
Channel positions              : Front: L R
Sampling rate                  : 44.1 kHz
Frame rate                     : 43.066 FPS (1024 SPF)
Compression mode               : Lossy
Stream size                    : 55.0 MiB (15%)
Title                          : GOPISAHI
Language                       : Tamil

Text
Language                       : English





 Muthuramalingam
(2017) on IMDb

No comments:

Post a Comment