Nikka Zaildar 2 2017 HD 720p Punjabi GOPISAHI - GOPISAHI

Sunday, 17 June 2018

Nikka Zaildar 2 2017 HD 720p Punjabi GOPISAHI

                  
Format                         : Matroska
Format version                 : Version 4 / Version 2
File size                      : 578 MiB
Duration                       : 2 h 16 min
Overall bit rate               : 592 kb/s
Movie name                     : Nikka Zaildar 2 2017HD 720p Punjabi GOPISAHI


Video
Format                         : AVC
Codec ID                       : V_MPEG4/ISO/AVC
Duration                       : 2 h 16 min
Bit rate                       : 500 kb/s
Width                          : 1 280 pixels
Height                         : 536 pixels
Display aspect ratio           : 2.40:1
Frame rate mode                : Constant
Frame rate                     : 30.000 FPS
Color space                    : YUV
Chroma subsampling             : 4:2:0
Bit depth                      : 8 bits
Scan type                      : Progressive
Bits/(Pixel*Frame)             : 0.024
Stream size                    : 488 MiB (84%)
Title                          : GOPISAHI
Writing library                : x264 core 155 r2893 b00bcaf
Language                       : Panjabi

Audio
Format                         : AAC
Duration                       : 2 h 16 min
Bit rate                       : 89.6 kb/s
Channel(s)                     : 6 channels
Channel positions              : Front: L C R, Side: L R, LFE
Sampling rate                  : 44.1 kHz
Frame rate                     : 43.066 FPS (1024 SPF)
Compression mode               : Lossy
Stream size                    : 87.5 MiB (15%)
Title                          : GOPISAHI
Language                       : Panjabi


 Nikka Zaildar 2
(2017) on IMDb

1 comment:

  1. Please upload Vadhayiyaan Ji Vadhayiyaan (2018)

    ReplyDelete