No Escape 2015 x264 720p Esub BluRay Dual Audio English Hindi GOPISAHI - GOPISAHI

Tuesday, 19 June 2018

No Escape 2015 x264 720p Esub BluRay Dual Audio English Hindi GOPISAHI

Format                         : Matroska
Format version                 : Version 4 / Version 2
File size                      : 720 MiB
Duration                       : 1 h 43 min
Overall bit rate               : 976 kb/s
Movie name                     : No Escape 2015 GOPSAHI

Video
Format                         : AVCs
Codec ID                       : V_MPEG4/ISO/AVC
Duration                       : 1 h 43 min
Bit rate                       : 800 kb/s
Width                          : 1 280 pixels
Height                         : 692 pixels
Display aspect ratio           : 1.85:1
Frame rate mode                : Constant
Frame rate                     : 23.976 (24000/1001) FPS
Color space                    : YUV
Chroma subsampling             : 4:2:0
Bit depth                      : 8 bits
Scan type                      : Progressive
Bits/(Pixel*Frame)             : 0.038
Stream size                    : 590 MiB (82%)
Title                          : GOPSAHI
Writing library                : x264 core 155 r2893 b00bcaf

Audio #1
Format                         : AAC
Duration                       : 1 h 43 min
Bit rate                       : 87.9 kb/s
Channel(s)                     : 6 channels
Channel positions              : Front: L C R, Side: L R, LFE
Sampling rate                  : 44.1 kHz
Frame rate                     : 43.066 FPS (1024 SPF)
Compression mode               : Lossy
Delay relative to video        : 222 ms
Stream size                    : 64.8 MiB (9%)
Title                          : GOPSAHI
Language                       : Hindi

Audio #2
Format                         : AAC
Duration                       : 1 h 43 min
Bit rate                       : 85.9 kb/s
Channel(s)                     : 6 channels
Channel positions              : Front: L C R, Side: L R, LFE
Sampling rate                  : 44.1 kHz
Frame rate                     : 43.066 FPS (1024 SPF)
Compression mode               : Lossy
Stream size                    : 63.4 MiB (9%)
Title                          : GOPSAHI
Language                       : English

Text
Language                       : English






 No Escape
(2015) on IMDb

No comments:

Post a Comment