Oblivion 2013 x264 720p Esub BluRay Dual Audio English Hindi GOPISAHI - GOPISAHI

Wednesday, 20 June 2018

Oblivion 2013 x264 720p Esub BluRay Dual Audio English Hindi GOPISAHI

Format                         : Matroska
Format version                 : Version 4 / Version 2
File size                      : 938 MiB
Duration                       : 2 h 4 min
Overall bit rate               : 1 052 kb/s
Movie name                     : Oblivion 2013 GOPISAHI

Video
Format                         : AVC
Codec ID                       : V_MPEG4/ISO/AVC
Duration                       : 2 h 4 min
Bit rate                       : 881 kb/s
Width                          : 1 280 pixels
Height                         : 536 pixels
Display aspect ratio           : 2.40:1
Frame rate mode                : Constant
Frame rate                     : 23.976 (24000/1001) FPS
Original frame rate            : 23.976 (23976/1000) FPS
Color space                    : YUV
Chroma subsampling             : 4:2:0
Bit depth                      : 8 bits
Scan type                      : Progressive
Bits/(Pixel*Frame)             : 0.054
Stream size                    : 786 MiB (84%)
Title                          : GOPISAHI
Writing library                : x264 core 132 r2 76a5c3a

Audio #1
Format                         : AAC
Duration                       : 2 h 4 min
Bit rate                       : 84.7 kb/s
Channel(s)                     : 6 channels
Channel positions              : Front: L C R, Side: L R, LFE
Sampling rate                  : 44.1 kHz
Frame rate                     : 43.066 FPS (1024 SPF)
Compression mode               : Lossy
Stream size                    : 75.5 MiB (8%)
Title                          : GOPISAHI
Language                       : Hindi

Audio #2
Format                         : AAC
Duration                       : 2 h 4 min
Bit rate                       : 82.9 kb/s
Channel(s)                     : 6 channels
Channel positions              : Front: L C R, Side: L R, LFE
Sampling rate                  : 44.1 kHz
Frame rate                     : 43.066 FPS (1024 SPF)
Compression mode               : Lossy
Stream size                    : 74.0 MiB (8%)
Title                          : GOPISAHI
Language                       : English

Text
Language                       : English





 Oblivion
(2013) on IMDb

No comments:

Post a Comment