Poltergeist 2015 x264 720p Esub BluRay Dual Audio English Hindi GOPISAHI - GOPISAHI

Thursday, 21 June 2018

Poltergeist 2015 x264 720p Esub BluRay Dual Audio English Hindi GOPISAHI


Format                         : Matroska
Format version                 : Version 4 / Version 2
File size                      : 813 MiB
Duration                       : 1 h 40 min
Overall bit rate               : 1 127 kb/s
Movie name                     : Poltergeist 2015 GOPSAHI

Video
Format                         : AVC
Codec ID                       : V_MPEG4/ISO/AVC
Duration                       : 1 h 40 min
Bit rate                       : 956 kb/s
Width                          : 1 280 pixels
Height                         : 536 pixels
Display aspect ratio           : 2.40:1
Frame rate mode                : Constant
Frame rate                     : 23.976 (24000/1001) FPS
Original frame rate            : 23.976 (23976/1000) FPS
Color space                    : YUV
Chroma subsampling             : 4:2:0
Bit depth                      : 8 bits
Scan type                      : Progressive
Bits/(Pixel*Frame)             : 0.058
Stream size                    : 690 MiB (85%)
Title                          : GOPSAHI
Writing library                : x264 core 123 r2189 35cf912

Audio #1
Format                         : AAC
Duration                       : 1 h 40 min
Bit rate                       : 85.5 kb/s
Channel(s)                     : 6 channels
Channel positions              : Front: L C R, Side: L R, LFE
Sampling rate                  : 44.1 kHz
Frame rate                     : 43.066 FPS (1024 SPF)
Compression mode               : Lossy
Stream size                    : 61.7 MiB (8%)
Title                          : GOPSAHI
Language                       : Hindi

Audio #2
Format                         : AAC
Duration                       : 1 h 40 min
Bit rate                       : 82.8 kb/s
Channel(s)                     : 6 channels
Channel positions              : Front: L C R, Side: L R, LFE
Sampling rate                  : 44.1 kHz
Frame rate                     : 43.066 FPS (1024 SPF)
Compression mode               : Lossy
Stream size                    : 59.7 MiB (7%)
Title                          : GOPSAHI
Language                       : English

Text
Language                       : English



TORRENT

MAGNET

https://linkshub.me/view/xOHfNAGLWL

 Poltergeist 2015 - Movie Review
(2016) on IMDb

No comments:

Post a Comment